Knuckleball.2018.HDRip.XviD.AC3.LLG.torrent
  • Size 929.8 MB
  • Uploaded on 19 November, 2018
  • Seeds 3
  • Leechs 1
  • Category Movies
  • Type Divx/Xvid
  • Language English
  • Quality Other
Download Magnet

INFO HASH

7DD4934094C001FB179FC75E25F1519AC3B013B2

Knuckleball.2018.HDRip.XviD.AC3.LLG description



******************************Thumbnail:**********************



******************************Screenshots:********************

Screenshot 1

Screenshot 2

Screenshot 3

Screenshot 4

Screenshot 5

Screenshot 6

Screenshot 7

Screenshot 8

Screenshot 9

Screenshot 0

************************************************************

Knuckleball.2018.HDRip.XviD.AC3.LLG.mp4
Format : MPEG-4
Format profile : Base Media
Codec ID : isom (isom/iso2/avc1/mp41)
File size : 923 MiB
Duration : 1 h 28 min
Overall bit rate : 1 455 kb/s
Writing application : Lavf57.56.101

Video
ID : 1
Format : AVC
Format/Info : Advanced Video Codec
Format profile :
Format settings : CABAC / 4 Ref Frames
Format settings, CABAC : Yes
Format settings, RefFrames : 4 frames
Codec ID : avc1
Codec ID/Info : Advanced Video Coding
Duration : 1 h 28 min
Bit rate : 1 200 kb/s
Width : 720 pixels
Height : 288 pixels
Display aspect ratio : 2.500
Frame rate mode : Constant
Frame rate : 23.976 (23976/1000) FPS
Color space : YUV
Chroma subsampling : 4:2:0
Bit depth : 8 bits
Scan type : Progressive
Bits/(Pixel*Frame) : 0.241
Stream size : 758 MiB (82%)


Audio
ID : 2
Format : AC-3
Format/Info : Audio Coding 3
Commercial name : Dolby Digital
Codec ID : ac-3
Duration : 1 h 28 min
Bit rate mode : Constant
Bit rate : 256 kb/s
Channel(s) : 6 channels
Channel layout : L R C LFE Ls Rs
Sampling rate : 48.0 kHz
Frame rate : 31.250 FPS (1536 SPF)
Bit depth : 16 bits
Compression mode : Lossy
Stream size : 162 MiB (18%)
Service kind : Complete Main
Default : Yes
Alternate group : 1


********************************************************

Knuckleball.2018.HDRip.XviD.AC3.LLG files
Knuckleball.2018.HDRip.XviD.AC3.LLG
  • SAMPLE.mkv (6.5 MB)
  • Knuckleball.2018.HDRip.XviD.AC3.LLG.mp4 (923.3 MB)
Related torrents
Name Seeds leechs Time Size
Knuckleball.2018.HDRip.XviD.AC3-EVO[TGx] » h.264/x264
 Other
51 9 10, Oct 1.3 GB
Knuckleball.2018.HDRip.XviD.AC3-EVO » DVD
 Other
41 4 10, Oct 1.3 GB
Knuckleball 2018 Movies HDRip x264 AAC with Sample ☻rDX☻ » HD
 Other
12 7 10, Oct 706.0 MB
Knuckleball 2018 Movies HDRip x264 5.1 with Sample ☻rDX☻ » HD
 Other
5 4 10, Oct 906.9 MB
Knuckleball.2018.HDRip.XviD.AC3-EVO[EtMovies] » DVD
 Other
2 5 10, Oct 1.3 GB