Miss Kobayashi's Dragon Maid_BD720p_English Subbed_(HEVC_10bit_SmoodFlamez).torrent
  • Size 2.3 GB
  • Uploaded on 29 October, 2018
  • Seeds 6
  • Leechs 3
  • Category Anime
  • Type Subbed
  • Language Japanese
  • Quality 720p
Download Magnet

INFO HASH

5B490BF5AC37B2EF28E859B44A343FFCF825BF59

Miss Kobayashi's Dragon Maid_BD720p_English Subbed_(HEVC_10bit_SmoodFlamez) description

Title
Miss Kobayashi’s Dragon Maid

Source
Dmonhiro

Storyline
Kobayashi lives alone in an apartment, until one day, Tohru appeared and they ended up living together. Kyobashi unintentionally found Tohru while walking home from being drunk, and asks her to come over. Tohru looks down on humans as inferior and foolish, but having been saved by Kobayashi, she does everything she can to repay the debt and help her with various things, although not everything goes according to plan. A mythical everyday life comedy about a hard working office lady living with a dragon girl ensues a slice of life animated show.

Details
Official Sites: Official site [Japan] | Offiical Twitter [Japan]
Country: Japan
Language: Japanese | English
Release Date: January 2017 (Japan)

MediaInfo

Video
ID : 1
Format : HEVC
Format/Info : High Efficiency Video Coding
Format profile : Main @Main
Codec ID : V_MPEGH/ISO/HEVC
Duration : 24 min 5 s
Width : 1 280 pixels
Height : 720 pixels
Display aspect ratio : 16:9
Frame rate mode : Constant
Frame rate : 23.976 (24000/1001) FPS
Color space : YUV
Chroma subsampling : 4:2:0
Bit depth : 10 bits

Audio
ID : 2
Format : AAC LC SBR
Format/Info : Advanced Audio Codec Low Complexity with Spectral Band Replication
Commercial name : HE-AAC
Format settings : Explicit
Codec ID : A_AAC-2
Duration : 24 min 4 s
Bit rate : 112 kb/s
Channel(s) : 2 channels
Channel layout : L R
Sampling rate : 96.0 kHz
Frame rate : 46.875 FPS (2048 SPF)
Compression mode : Lossy
Delay relative to video : 4 ms
Stream size : 19.3 MiB (11%)
Language : Japanese
Default : Yes
Forced : No

Text
ID : 3
Format : ASS
Codec ID : S_TEXT/ASS
Codec ID/Info : Advanced Sub Station Alpha
Duration : 23 min 22 s
Bit rate : 198 b/s
Count of elements : 417
Compression mode : Lossless
Stream size : 34.0 KiB (0%)
Default : No
Forced : Yes

Screenshots



Install Attachment and enjoy

Miss Kobayashi's Dragon Maid_BD720p_English Subbed_(HEVC_10bit_SmoodFlamez) files
Miss Kobayashi's Dragon Maid_BD720p_(HEVC_10bit_SmoodFlamez)
  • Episode 01 - The Strongest Maid In History, Tohru!.mkv (218.8 MB)
  • Episode 02 - Second Dragon, Kanna!.mkv (186.0 MB)
  • Episode 03 - Start Of A New Life!.mkv (176.6 MB)
  • Episode 04 - Kanna Goes To School!.mkv (170.3 MB)
  • Episode 05 - Tohru's Real World Lessons!.mkv (178.6 MB)
  • Episode 06 - Home Visit!.mkv (162.2 MB)
  • Episode 07 - Summer Staples!.mkv (171.2 MB)
  • Episode 08 - New Dragon, Elma!.mkv (163.8 MB)
  • Episode 09 - Sports Festival!.mkv (159.6 MB)
  • Episode 10 - Troupe Dragon, On Stage!.mkv (163.9 MB)
  • Episode 11 - Year End, New Year!.mkv (127.1 MB)
  • Episode 12 - Tohru And Kobayashi's Impactful Meeting!.mkv (160.5 MB)
  • Episode 13 - Emperor Of Demise Arrives!.mkv (135.5 MB)
  • Episode 14 - Valentine's, And Then Hot Springs!.mkv (143.1 MB)
  • Posters
    • 5a68e1aa62d7b_426122b.jpg (375.0 KB)
    • d0cf6123194eb0c8353b44e169499208.png (3.2 MB)
    • edf29635.jpg (1.2 MB)
    • ef0.jpg (249.3 KB)
    Screenshots
    • 2018-10-21_112949.png (1.8 MB)
    • 2018-10-21_113004.png (1.6 MB)
    • 2018-10-21_113048.png (1.4 MB)
    • 2018-10-21_113130.png (1.5 MB)
    • Souses.otf (73.0 KB)