The Punished 2018 1080p WEB-DL x264 [MW].torrent
  • Size 1.3 GB
  • Uploaded on 4 November, 2018
  • Seeds 12
  • Leechs 2
  • Category Movies
  • Type HD
  • Language English
  • Quality 1080p
Download Magnet

INFO HASH

CE2C3C63115EBB19953E95C4FB96F9028CAE732E

The Punished 2018 1080p WEB-DL x264 [MW] description





General
Format : Matroska
Format version : Version 4 / Version 2
File size : 1.31 GiB
Duration : 1 h 27 min
Overall bit rate : 2 137 kb/s

Video
ID : 1
Format : AVC
Format/Info : Advanced Video Codec
Format profile :
Format settings : CABAC / 4 Ref Frames
Format settings, CABAC : Yes
Format settings, RefFrames : 4 frames
Codec ID : V_MPEG4/ISO/AVC
Duration : 1 h 27 min
Bit rate : 2 000 kb/s
Width : 1 920 pixels
Height : 1 080 pixels
Display aspect ratio : 16:9
Frame rate mode : Constant
Frame rate : 23.976 (24000/1001) FPS
Color space : YUV
Chroma subsampling : 4:2:0
Bit depth : 8 bits
Scan type : Progressive
Bits/(Pixel*Frame) : 0.040
Stream size : 1.19 GiB (91%)
Writing library : x264 core 155 r2901 7d0ff22
Default : Yes
Forced : No

Audio
ID : 2
Format : AAC
Format/Info : Advanced Audio Codec
Format profile : LC
Codec ID : A_AAC-2
Duration : 1 h 27 min
Bit rate : 192 kb/s
Channel(s) : 2 channels
Channel positions : Front: L R
Sampling rate : 48.0 kHz
Frame rate : 46.875 FPS (1024 SPF)
Compression mode : Lossy
Stream size : 120 MiB (9%)
Language : English
Default : Yes
Forced : No


Click To Enlarge Image







The Punished 2018 1080p WEB-DL x264 [MW] files
The Punished 2018 1080p WEB-DL x264 [MW]
  • The Punished 2018 1080p WEB-DL x264 [MW].mkv (1.3 GB)
Related torrents
Name Seeds leechs Time Size
The.Punished.2018.HDRip.XviD.AC3-EVO[EtMovies] » DVD
 Other
10 5 29, Oct 1.3 GB
The.Punished.2018.HDRip.XviD.AC3-EVO[TGx] » h.264/x264
 Other
1 0 29, Oct 1.3 GB
The.Punished.2018.1080p.WEB-DL.H264.AC3-EVO[EtHD] » HD
 1080p
10 2 29, Oct 3.3 GB
The.Punished.2018.1080p.WEB-DL.H264.AC3-EVO[TGx] » HD
 1080p
5 0 29, Oct 3.3 GB
The.Punished.2018.HDRip.XviD.AC3-EVO » DVD
 Other
115 12 29, Oct 1.3 GB